#TITLE:Dancing Diva;
#SUBTITLE:;
#ARTIST:Jolin Tsai;
#TITLETRANSLIT:;
#SUBTITLETRANSLIT:;
#ARTISTTRANSLIT:;
#CREDIT:;
#BANNER:Dancing Divabanner.png;
#BACKGROUND:Dancing Divabg.png;
#LYRICSPATH:;
#CDTITLE:;
#MUSIC:02 - Dancing Diva.mp3;
#OFFSET:0.000;
#SAMPLESTART:38.960;
#SAMPLELENGTH:12.000;
#SELECTABLE:YES;
#BPMS:0.000=123.620,168.000=27.980,172.500=123.620;
#STOPS:71.500=3.820
;
#BGCHANGES:;
// cache tags:
#FIRSTBEAT:0.000;
#LASTBEAT:236.000;
#SONGFILENAME:Songs/nhac/02 - Dancing Diva/02 - Dancing Diva.sm;
#HASMUSIC:1;
#HASBANNER:1;
#MUSICLENGTH:130.463;
// end cache tags

//---------------dance-single - Medium Edit----------------
#NOTES:
     dance-single:
     Medium Edit:
     Edit:
     5:
     0.384,0.384,0.230,0.130,0.000,304.000,30.000,17.000,0.000,0.000:
1000
1000
0100
0000
0001
0010
1000
0010
,
0001
1000
0010
0010
0000
0001
1000
0000
,
1000
0001
0001
0100
0010
0001
0100
1000
,
0001
0001
1000
1000
0001
0001
1000
0000
,
0110
0000
0001
0100
1000
0000
0010
0001
,
0100
0000
0001
0000
0010
0000
1000
0001
,
0001
0000
0110
0000
0000
0100
1000
0000
,
0010
0001
0100
0000
0010
0000
0001
1000
,
0100
0000
1000
0000
0010
0100
0001
0000
,
0100
0000
0010
0000
0100
0000
0001
1000
,
1000
0000
0001
0010
0100
0000
0010
0001
,
1001
0100
0010
0000
0100
0000
0001
0100
,
1000
0001
0001
1000
1000
0010
0001
0100
,
1000
0000
0010
0001
0001
0000
0100
0100
,
0010
0001
1000
0100
0100
0001
0001
0000
,
0010
0000
1000
0100
0100
0010
0001
0000
,
1000
0100
0100
0001
0001
0100
0010
0000
,
0100
0000
1001
0000
0100
0100
0010
0000
,
1001
1001
0010
0010
0100
0000
0001
0000
,
1000
0100
0010
0000
0100
0000
0001
0000
,
0100
1000
2002
0000
,
3003
0000
1000
0001
0001
0000
1000
0000
,
0010
0010
0100
0000
0001
0000
1001
0000
,
0100
0000
0010
0000
0001
0000
1000
0010
,
0001
1000
0100
0010
0010
0000
0001
0000
,
1000
0001
1001
0000
1001
0000
1001
0000
,
1000
0000
0001
1000
0100
0001
0000
0000
,
1000
0000
0001
0100
0100
0000
0000
0000
,
1000
0000
0001
0100
0100
0000
0000
0000
,
1000
0100
0001
0010
0100
0000
0010
0000
,
0010
0100
1000
0010
0010
0000
0000
0000
,
1100
0000
0011
0100
1100
0000
0000
0000
,
0001
0000
1000
1001
0001
0000
0000
0000
,
1000
0010
0001
1010
0100
0000
1000
0000
,
2001
0000
3000
1000
,
0002
1000
1003
0000
,
2000
0001
3001
0020
,
2030
3002
0003
1000
,
2000
0001
3001
0000
,
0002
1000
1003
2000
,
0000
0001
3001
0020
,
0032
2003
3000
0001
,
2000
0000
3000
0002
0000
2003
0000
3000
,
0000
1000
0010
0000
0001
0000
1000
0010
,
0010
0001
1010
0000
0100
0010
0001
0000
,
1000
0001
0010
0000
0001
0100
0100
0000
,
0010
1001
1001
1001
,
0100
0001
0010
0000
0001
1000
1000
0000
,
0100
0001
0010
0000
0010
0000
0100
0010
,
1001
1000
0001
0100
,
1001
0000
1000
0001
0100
0000
0010
1000
,
1001
0000
0010
0001
0100
0000
0001
0000
,
1000
1000
0010
0000
1000
0001
0001
0000
,
0100
0001
0010
0000
0001
1000
1000
0000
,
0001
0000
0100
0010
0010
0100
0100
0000
,
0100
0000
0001
0001
1000
0000
0100
1000
,
0001
0000
0100
0100
0010
0000
1001
0001
,
0100
1000
0010
0000
0001
0100
0100
0000
,
1001
1001
1001
1001
,
0110
0000
0000
0000
;

//---------------dance-single - ----------------
#NOTES:
     dance-single:
     :
     Medium:
     5:
     0.384,0.384,0.230,0.130,0.000,304.000,30.000,17.000,0.000,0.000:
1000
1000
0100
0000
0001
0010
1000
0010
,
0001
1000
0010
0010
0000
0001
1000
0000
,
1000
0001
0001
0100
0010
0001
0100
1000
,
0001
0001
1000
1000
0001
0001
1000
0000
,
0110
0000
0001
0100
1000
0000
0010
0001
,
0100
0000
0001
0000
0010
0000
1000
0001
,
0001
0000
0110
0000
0000
0100
1000
0000
,
0010
0001
0100
0000
0010
0000
0001
1000
,
0100
0000
1000
0000
0010
0100
0001
0000
,
0100
0000
0010
0000
0100
0000
0001
1000
,
1000
0000
0001
0010
0100
0000
0010
0001
,
1001
0100
0010
0000
0100
0000
0001
0100
,
1000
0001
0001
1000
1000
0010
0001
0100
,
1000
0000
0010
0001
0001
0000
0100
0100
,
0010
0001
1000
0100
0100
0001
0001
0000
,
0010
0000
1000
0100
0100
0010
0001
0000
,
1000
0100
0100
0001
0001
0100
0010
0000
,
0100
0000
1001
0000
0100
0100
0010
0000
,
1001
1001
0010
0010
0100
0000
0001
0000
,
1000
0100
0010
0000
0100
0000
0001
0000
,
0100
1000
2002
0000
,
3003
0000
1000
0001
0001
0000
1000
0000
,
0010
0010
0100
0000
0001
0000
1001
0000
,
0100
0000
0010
0000
0001
0000
1000
0010
,
0001
1000
0100
0010
0010
0000
0001
0000
,
1000
0001
1001
0000
1001
0000
1001
0000
,
1000
0000
0001
1000
0100
0001
0000
0000
,
1000
0000
0001
0100
0100
0000
0000
0000
,
1000
0000
0001
0100
0100
0000
0000
0000
,
1000
0100
0001
0010
0100
0000
0010
0000
,
0010
0100
1000
0010
0010
0000
0000
0000
,
1100
0000
0011
0100
1100
0000
0000
0000
,
0001
0000
1000
1001
0001
0000
0000
0000
,
1000
0010
0001
1010
0100
0000
1000
0000
,
2001
0000
3000
1000
,
0002
1000
1003
0000
,
2000
0001
3001
0020
,
2030
3002
0003
1000
,
2000
0001
3001
0000
,
0002
1000
1003
2000
,
0000
0001
3001
0020
,
0032
2003
3000
0001
,
2000
0000
3000
0002
0000
2003
0000
3000
,
0000
1000
0010
0000
0001
0000
1000
0010
,
0010
0001
1010
0000
0100
0010
0001
0000
,
1000
0001
0010
0000
0001
0100
0100
0000
,
0010
1001
1001
1001
,
0100
0001
0010
0000
0001
1000
1000
0000
,
0100
0001
0010
0000
0010
0000
0100
0010
,
1001
1000
0001
0100
,
1001
0000
1000
0001
0100
0000
0010
1000
,
1001
0000
0010
0001
0100
0000
0001
0000
,
1000
1000
0010
0000
1000
0001
0001
0000
,
0100
0001
0010
0000
0001
1000
1000
0000
,
0001
0000
0100
0010
0010
0100
0100
0000
,
0100
0000
0001
0001
1000
0000
0100
1000
,
0001
0000
0100
0100
0010
0000
1001
0001
,
0100
1000
0010
0000
0001
0100
0100
0000
,
1001
1001
1001
1001
,
0110
0000
0000
0000
;

//---------------dance-single - ----------------
#NOTES:
     dance-single:
     :
     Easy:
     3:
     0.273,0.271,0.199,0.130,0.000,206.000,26.000,17.000,0.000,0.000:
1000
0100
0001
1000
,
0001
0010
0000
1000
,
1000
0001
0010
0100
,
0001
1000
0001
1000
,
0110
0001
1000
0010
,
0100
0001
0010
1000
,
0001
0110
0000
1000
,
0010
0100
0010
0001
,
0100
1000
0010
0001
,
0100
0010
0100
0001
,
1000
0001
0100
0010
,
1001
0010
0100
0001
,
1000
0001
1000
0001
,
1000
0010
0001
0100
,
0010
1000
0100
0001
,
0010
1000
0100
0001
,
1000
0100
0001
0010
,
0100
1001
0100
0010
,
1001
0010
0100
0001
,
1000
0010
0100
0001
,
0100
1000
2002
0000
,
3003
1000
0001
1000
,
0010
0100
0001
1001
,
0100
0010
0001
1000
,
0001
0100
0010
0001
,
1000
1001
1001
1001
,
1000
0001
0100
0000
,
1000
0001
0100
0000
,
1000
0001
0100
0000
,
1000
0001
0100
0010
,
0010
1000
0010
0000
,
1100
0011
1100
0000
,
0001
1000
0001
0000
,
1000
0001
0100
1000
,
2001
0000
3000
0000
,
0002
0000
0003
0000
,
2000
0000
3000
0020
,
2030
3002
0003
0000
,
2000
0000
3000
0000
,
0002
0000
0003
0000
,
2000
0000
3000
0020
,
0032
2003
3000
0000
,
2000
0000
3000
0002
0000
2003
0000
3000
,
0000
1000
0010
0000
0001
0000
1000
0000
,
0010
0010
0100
0001
,
1000
0010
0001
0100
,
0010
1001
1001
1001
,
0100
0010
0001
1000
,
0100
0010
0010
0100
,
1001
1000
0001
0100
,
1001
1000
0100
0010
,
1001
0010
0100
0001
,
1000
0010
1000
0001
,
0100
0010
0001
1000
,
0001
0100
0010
0100
,
0100
0001
1000
0100
,
0001
0100
0010
1001
,
0100
0010
0001
0100
,
1001
1001
1001
1001
,
0110
0000
0000
0000
;

//---------------dance-single - ----------------
#NOTES:
     dance-single:
     :
     Hard:
     7:
     0.471,0.452,0.261,0.130,0.226,379.000,34.000,17.000,0.000,0.000:
1000
0000
0100
1000
0000
0000
0100
0000
0000
0000
0000
0000
0001
0000
0000
0010
0000
0000
1000
0000
0001
0010
0000
0000
,
0001
0000
0000
1000
0000
0000
0010
0000
0000
0010
0000
0000
0000
0000
0000
1001
0000
0000
1000
0000
0000
0000
0010
0000
,
1000
0000
0000
0001
0000
0000
0001
0000
0000
0100
0000
0000
0010
0000
0000
0001
0000
0000
0100
0000
0010
1000
0000
0000
,
0001
0000
0000
0001
0000
0000
1000
0000
0001
1000
0000
0000
0001
0000
0000
0001
0000
0000
1000
0000
0000
0000
0000
0000
,
0110
0000
0000
0000
1000
0000
0001
0000
0000
0100
0000
0000
1000
0000
0001
0000
0000
0000
0010
0000
0000
0001
0000
0000
,
0100
0000
0010
0000
0000
0000
0001
0000
0000
0000
0000
0000
0010
0000
0000
0000
0000
0000
1000
0000
0000
0001
0000
0000
,
0001
0000
0100
0000
0000
0000
0110
0000
0000
0001
0000
0000
0000
0000
0000
0100
0000
0000
1000
0000
0000
1000
0000
0000
,
0010
0000
0100
0001
0000
0000
0100
0000
0000
0000
0000
0000
0010
0000
0000
0000
0100
0000
0001
0000
0000
1000
0000
0000
,
0100
0000
0000
0000
0000
0000
1000
0000
0000
0000
0000
0000
0010
0000
0000
0100
0000
0000
0001
0000
0010
0000
0000
0000
,
0100
0000
0001
0000
0000
0000
0010
0000
0000
0000
0000
0000
0100
0000
0000
0000
0000
0000
0001
0000
0000
1000
0000
0000
,
1000
0000
0001
0010
0100
1000
0010
0001
,
1001
0000
0010
0100
0000
0000
0010
0000
0000
0001
0000
0000
0100
0000
0000
0000
1000
0000
0001
0000
0000
0100
0000
0000
,
1000
0001
0001
1000
1000
0010
0001
0100
,
1000
0000
0001
0000
0000
0000
0010
0000
0000
0001
0000
0000
0001
0000
0000
0000
1000
0000
0100
0000
0000
0100
0000
0000
,
0010
0001
1000
0100
0100
0001
0001
0000
,
0010
0000
1001
0100
0100
1010
0001
0000
,
1000
0000
0000
0100
0001
0000
0100
0000
0000
0001
0000
0000
0001
0000
0000
0100
0000
0000
0010
0000
0000
0000
0000
0000
,
0100
0000
0000
0000
0000
0000
1001
0000
0010
0000
0000
0000
0100
0000
0000
0100
0000
0000
0010
0000
0000
0000
0000
0000
,
1001
0000
0000
1001
0000
0000
0010
0000
0100
0010
0000
0000
0100
0000
0000
0000
0001
0000
0001
0000
0100
0000
0000
0000
,
1000
0000
0000
0100
0000
0000
0010
0000
0000
0010
0000
0000
0100
0000
0000
0000
0000
0000
0001
0000
1000
0000
0000
0000
,
0100
0000
0001
1000
0000
0000
2002
0000
0000
0000
0000
0000
,
3003
0000
0000
0000
0000
0000
1000
0000
0000
0001
1000
0000
0001
0000
0000
0000
0000
0000
1000
0000
0000
0000
0000
0000
,
0010
0000
0000
0010
0000
0000
0100
0000
0010
0000
0000
0000
0001
0000
0000
0000
0000
0000
1001
0000
0000
0000
0000
0000
,
0100
0000
0000
1000
0000
0000
0010
0000
0000
0000
0000
0000
0001
0000
0000
0001
0000
0000
1000
0000
0000
0010
0100
0000
,
0001
0000
0000
1000
0000
0000
0100
0000
0001
0010
0000
0000
0010
0000
0000
0000
0000
0000
0001
0000
0000
0000
0000
0000
,
1000
0000
0000
0001
0000
0000
1001
0000
1000
0000
0000
0000
1001
0000
0000
0000
0001
0000
1001
0000
0000
0000
0000
0000
,
1000
0000
0000
0000
0000
0000
0001
0000
0000
1000
0000
0000
0100
0000
1000
0001
0000
0000
0000
0000
0000
0000
0000
0000
,
1000
0000
0000
0000
0000
0000
0001
0000
0010
0100
0000
0000
0100
0000
0000
0000
0000
0000
0000
0000
0000
0000
0000
0000
,
1000
0000
0000
0000
0000
0000
0001
0000
0010
0100
0000
0000
0100
0000
0000
0000
0000
0000
0000
0000
0000
0000
0000
0000
,
1000
0000
0000
0100
1000
0000
0001
0000
0000
0010
0000
0000
0100
0000
0010
0000
0000
0000
0010
0000
0000
0000
0000
0000
,
0010
0000
0000
0100
0000
0000
1000
0000
0001
0010
0000
0000
0010
0000
0000
0000
0000
0000
0000
0000
0000
0000
0000
0000
,
1100
0000
0000
0000
0000
0000
0011
0000
1000
0100
0000
0000
1100
0000
0000
0000
0000
0000
0000
0000
0000
0000
0000
0000
,
0001
0000
1000
1001
0001
0000
0000
0000
,
1000
0000
0000
0010
0100
0000
0001
0000
0000
1010
0000
0000
0100
0000
0000
0000
0000
0000
1000
0000
0000
0000
0000
0000
,
2001
0000
0000
0010
3000
0000
1000
0000
,
0002
1000
1000
0000
1003
0000
0000
0000
,
2000
0010
0001
0000
3001
0000
0020
0000
,
2030
3002
0003
1000
,
2000
0000
0001
0001
3001
0000
0000
0000
,
0002
0000
1000
1000
1003
0000
2000
0000
,
0000
0000
0001
0001
3001
0000
0020
0000
,
0032
2003
3000
0001
,
2000
0000
3000
0002
0000
2003
0000
3000
,
0000
0000
0000
1000
0000
0000
0010
0000
0100
0000
0000
0000
0001
0000
0000
0000
0001
0000
1000
0000
0000
0010
0100
0000
,
0010
0000
0000
0001
0000
0000
1010
0000
0000
0000
0000
0000
0100
0000
0001
0010
0000
0000
0001
0000
0000
0000
0000
0000
,
1000
0000
0000
0001
0000
0000
0010
0000
1000
0000
0000
0000
0001
0000
0000
0100
0000
0000
0100
0000
0000
0000
0000
0000
,
0010
0001
0000
1001
0000
0000
1001
0000
0000
1001
0000
0000
,
0100
0001
0010
1000
0001
1000
1000
0000
,
0100
0000
1000
0001
0000
0000
0010
0000
0000
0000
0000
0000
0010
0000
0000
0000
0000
0000
0100
0000
0000
0010
0000
0000
,
1001
0000
0000
0010
0000
0000
1000
0000
0001
0000
0000
0000
0001
0000
0000
1000
0000
0000
0100
0000
0000
0000
0000
0000
,
1001
0000
0000
0000
0010
0000
1000
0000
0000
0001
0000
0000
0100
0000
1000
0000
0000
0000
0010
0000
0000
1000
0000
0000
,
1001
0000
0000
0000
0010
0000
0010
0000
0000
0001
0000
0000
0100
0000
1000
0000
0000
0000
0001
0000
0000
0000
0000
0000
,
1000
1000
0010
0000
1000
0001
0001
0000
,
0100
0000
0000
0001
0000
0000
0010
0000
0000
0000
0000
0000
0001
0000
0010
1000
0000
0000
1000
0000
0000
0000
0000
0000
,
0001
0000
1000
0000
0000
0000
0100
0000
0000
0010
0000
0000
0010
0000
0000
0100
0000
0000
0100
0000
0000
0000
0010
0000
,
0100
0000
0000
0000
0000
0000
1001
0000
0000
0001
0000
0000
1000
0000
0000
0000
0010
0000
0100
0000
0000
1000
0000
0000
,
0001
0000
1000
0000
0000
0000
0100
0000
0010
0100
0000
0000
0010
0000
0000
0000
0000
0000
1001
0000
1000
0001
0000
0000
,
0100
0000
0000
1000
0000
0000
0010
0000
0100
0000
0000
0000
0001
0000
0001
0100
0000
0000
0100
0000
0000
0000
0000
0000
,
1001
1001
1001
1001
,
0110
0000
0000
0000
;
